coor
一代宗師

[更 早] [歐美] [其他] [BD-1080P] 奪魂索 Rope.1948.PROPER.1080p.BluRay.x264-CLASSiC 6.69GB

-->

帖子完整標題:奪魂索 Rope.1948.PROPER.1080p.BluRay.x264-CLASSiC 6.69GB




◎譯  名 奪魂索 / Alfred Hitchcock's Rope / 繩索
◎片  名 Rope
◎年  代 1948
◎產  地 美國
◎類  別 懸疑 / 驚悚 / 犯罪
◎語  言 英語
◎上映日期 1948-08-28(美國)
◎IMDb評分 8.0/10 from 119244 users
◎IMDb鏈接 https://www.imdb.com/title/tt0040746
◎豆瓣評分 8.1/10 from 25394 users
◎豆瓣鏈接 https://movie.douban.com/subject/1301230/
◎片  長 80 分鐘
◎導  演 阿爾弗雷德·希區柯克 Alfred Hitchcock
◎編  劇 休姆·克羅寧 Hume Cronyn / 帕特里克·漢密爾頓 Patrick Hamilton / 亞瑟·勞倫特斯 Arthur Laurents / 本·赫克特 Ben Hecht
◎主  演 約翰·道爾 John Dall
      法利·格蘭杰 Farley Granger
      詹姆斯·斯圖爾特 James Stewart
      伊迪絲·埃文森 Edith Evanson
      道格拉斯·迪克 Douglas Dick
      瓊·錢德勒 Joan Chandler
      塞德里克·哈德威克 Cedric Hardwicke
      康絲坦斯·柯莉兒 Constance Collier
      Dick Hogan


◎標  簽 希區柯克 | 懸疑 | 美國 | 犯罪 | AlfredHitchcock | 1948 | 阿爾弗雷德·希區柯克 | 美國電影

◎簡  介

  博蘭頓(約翰?達爾John Dall 飾)和菲利普(法利?格蘭杰 Farley Granger 飾)都是哈佛的高才生,一天,都是同性戀的兩人合謀殺害了同學戴維,并藏尸于一個大箱子中?;蛟S是出于炫耀,他們做出了一個驚人的舉動。那就是用裝著戴維尸體的箱子當餐桌,邀請了戴維的父母、未婚妻、同學和茹伯特教授(詹姆斯?斯圖爾特 James Stewart 飾)來赴宴。他們謊稱戴維外出了,和客人們在戴維的“棺材”上進行著宴會。膽小的菲利普從宴會開始就開始坐立不安,但是博蘭頓卻不慌不忙,在客人中滔滔不絕。然而,聰明的茹伯特教授從博蘭頓的談話中漸漸察覺出事有蹊蹺……
Video
ID : 1
Format : AVC
Format/Info : Advanced Video Codec
Format profile : [email protected]
Format settings : CABAC / 4 Ref Frames
Format settings, CABAC : Yes
Format settings, Reference frames : 4 frames
Codec ID : V_MPEG4/ISO/AVC
Duration : 1 h 20 min
Bit rate : 10.1 Mb/s
Width : 1 456 pixels
Height : 1 080 pixels
Display aspect ratio : 4:3
Frame rate mode : Constant
Frame rate : 23.976 (24000/1001) FPS
Color space : YUV
Chroma subsampling : 4:2:0
Bit depth : 8 bits
Scan type : Progressive
Bits/(Pixel*Frame) : 0.269
Stream size : 5.71 GiB (87%)
Writing library : x264 core 158 r2988 7817004
Encoding settings : cabac=1 / ref=4 / deblock=1:0:0 / analyse=0x3:0x133 / me=tesa / subme=10 / psy=1 / psy_rd=1.00:0.00 / mixed_ref=1 / me_range=24 / chroma_me=1 / trellis=2 / 8x8dct=1 / cqm=0 / deadzone=21,11 / fast_pskip=0 / chroma_qp_offset=-2 / threads=24 / lookahead_threads=4 / sliced_threads=0 / nr=0 / decimate=1 / interlaced=0 / bluray_compat=0 / constrained_intra=0 / bframes=8 / b_pyramid=0 / b_adapt=2 / b_bias=0 / direct=3 / weightb=1 / open_gop=0 / weightp=2 / keyint=240 / keyint_min=24 / scenecut=40 / intra_refresh=0 / rc_lookahead=60 / rc=2pass / mbtree=1 / bitrate=10126 / ratetol=1.0 / qcomp=0.60 / qpmin=0 / qpmax=69 / qpstep=4 / cplxblur=20.0 / qblur=0.5 / vbv_maxrate=78125 / vbv_bufsize=62500 / nal_hrd=none / filler=0 / ip_ratio=1.40 / aq=1:1.00
Default : Yes
Forced : No
Color range : Limited
Color primaries : BT.709
Transfer characteristics : BT.709
Matrix coefficients : BT.709

Audio
ID : 2
Format : DTS
Format/Info : Digital Theater Systems
Codec ID : A_DTS
Duration : 1 h 20 min
Bit rate mode : Constant
Bit rate : 1 509 kb/s
Channel(s) : 2 channels
Channel layout : L R
Sampling rate : 48.0 kHz
Frame rate : 93.750 FPS (512 SPF)
Bit depth : 24 bits
Compression mode : Lossy
Stream size : 871 MiB (13%)
Language : English
Default : Yes
Forced : No

Menu
00:00:00.000 : en:Chapter 01
00:01:57.743 : en:Chapter 02
00:09:27.859 : en:Chapter 03
00:11:42.327 : en:Chapter 04
00:13:36.441 : en:Chapter 05
00:17:13.658 : en:Chapter 06
00:23:34.038 : en:Chapter 07
00:27:10.587 : en:Chapter 08
00:28:16.653 : en:Chapter 09
00:33:12.282 : en:Chapter 10
00:34:24.062 : en:Chapter 11
00:39:59.188 : en:Chapter 12
00:44:25.454 : en:Chapter 13
00:46:42.091 : en:Chapter 14
00:51:57.072 : en:Chapter 15
01:03:18.753 : en:Chapter 16
01:13:21.355 : en:Chapter 17
01:20:10.639 : en:Chapter 18





1 個附件 售價 大小 下載 時間

Rope.1948.PROPER.1080p.BluRay.x264-CLASSiC.torrent 0 金幣 34.13K 525 次 4月前

#1樓
發帖時間:2020-01-13 23:31:37   |   回復數:2
jokingcheung
一代宗師
謝謝分享
4月前 #2樓
911degrees
隱世仙人♂
非常感謝,謝謝分享
4月前 #3樓
游客組