coor
一代宗師

[更 早] [歐美] [劇情] [BD-1080P] 辣手摧花/心聲疑影 Shadow.Of.A.Doubt.1943.PROPER.1080p.BluRay.x264-CLASSiC 8.10GB

-->

帖子完整標題:辣手摧花/心聲疑影 Shadow.Of.A.Doubt.1943.PROPER.1080p.BluRay.x264-CLASSiC 8.10GB




◎譯  名 辣手摧花 / 心聲疑影 / 疑影
◎片  名 Shadow of a Doubt
◎年  代 1943
◎產  地 美國
◎類  別 劇情 / 懸疑 / 犯罪
◎語  言 英語
◎上映日期 1943-01-12(美國)
◎IMDb評分 7.9/10 from 55533 users
◎IMDb鏈接 https://www.imdb.com/title/tt0036342
◎豆瓣評分 7.6/10 from 11344 users
◎豆瓣鏈接 https://movie.douban.com/subject/1293817/
◎片  長 108 分鐘
◎導  演 阿爾弗雷德·希區柯克 Alfred Hitchcock
◎編  劇 桑頓·懷爾德 Thornton Wilder / 薩莉·本森 Sally Benson / 艾瑪·雷維爾 Alma Reville / Gordon McDonell
◎主  演 特雷莎·懷特 Teresa Wright
      約瑟夫·科頓 Joseph Cotten
      麥克唐納·凱瑞 Macdonald Carey
      亨利·崔佛斯 Henry Travers
      帕特里夏·科林奇 Patricia Collinge
      休姆·克羅寧 Hume Cronyn
      華萊士·福特 Wallace Ford
      艾德娜·梅·沃娜考特 Edna May Wonacott
      查爾斯·貝茨 Charles Bates
      歐文·培根 Irving Bacon
      克拉倫斯·繆斯 Clarence Muse
      弗吉尼亞·布里薩克 Virginia Brissac
      愛德華·菲爾丁 Edward Fielding
      阿爾弗雷德·希區柯克 Alfred Hitchcock
      魯思李 Ruth Lee
      約翰·麥圭爾 John McGuire
      雪莉·米爾斯 Shirley Mills
      格蘭丁·羅德 Grandon Rhodes
      Janet Shaw
      Estelle Jewell
      Bill Bates
      Frances Carson
      Earle S. Dewey
      Sarah Edwards
      Vaughan Glaser
      Shep Houghton
      Eily Malyon
      Constance Purdy
      Isabel Randolph
      Edwin Stanley
      Minerva Urecal


◎標  簽 希區柯克 | 懸疑 | 美國 | 犯罪 | AlfredHitchcock | 1943 | 黑白 | 美國電影

◎簡  介

  小鎮沉悶的空氣令受過高等教育的Charlie(Teresa Wright)十分壓抑,她渴望在外謀大事、自己喜愛和崇敬的Uncle Charlie(Joseph Cotten)能突然出現,為自己的生活注入一縷新風。Charlie欲發電報邀請舅舅來做客時,竟先收到他發來的要來的報文,驚喜之外,她對舅舅的愛又加深一層。
  Uncle Charlie的到來令Charlie及父母非常興奮,但酷愛讀書的妹妹無動于衷。不久Charlie如沐春風變作無憂無慮的少女。兩個自稱報社記者的陌生人有心將Charlie一家當作典型美國家庭采訪,Uncle Charlie為此事大發雷霆相當失態,令Charlie和母親大為不解。而同其中之一Herbie Hawkins(Hume Cronyn)交談中,Charlie震驚地聽聞有關舅舅的駭人秘密。

◎獲獎情況

  第16屆奧斯卡金像獎(1944)
  最佳原創故事(提名) Gordon McDonell
Video
ID : 1
Format : AVC
Format/Info : Advanced Video Codec
Format profile : [email protected]
Format settings : CABAC / 4 Ref Frames
Format settings, CABAC : Yes
Format settings, Reference frames : 4 frames
Codec ID : V_MPEG4/ISO/AVC
Duration : 1 h 47 min
Bit rate : 9 034 kb/s
Width : 1 432 pixels
Height : 1 080 pixels
Display aspect ratio : 4:3
Frame rate mode : Constant
Frame rate : 23.976 (24000/1001) FPS
Color space : YUV
Chroma subsampling : 4:2:0
Bit depth : 8 bits
Scan type : Progressive
Bits/(Pixel*Frame) : 0.244
Stream size : 6.65 GiB (84%)
Writing library : x264 core 158 r2988 7817004
Encoding settings : cabac=1 / ref=4 / deblock=1:0:0 / analyse=0x3:0x133 / me=tesa / subme=10 / psy=1 / psy_rd=1.00:0.00 / mixed_ref=1 / me_range=24 / chroma_me=1 / trellis=2 / 8x8dct=1 / cqm=0 / deadzone=21,11 / fast_pskip=0 / chroma_qp_offset=-2 / threads=24 / lookahead_threads=4 / sliced_threads=0 / nr=0 / decimate=1 / interlaced=0 / bluray_compat=0 / constrained_intra=0 / bframes=8 / b_pyramid=2 / b_adapt=2 / b_bias=0 / direct=3 / weightb=1 / open_gop=0 / weightp=2 / keyint=250 / keyint_min=23 / scenecut=40 / intra_refresh=0 / rc_lookahead=60 / rc=2pass / mbtree=1 / bitrate=9034 / ratetol=1.0 / qcomp=0.60 / qpmin=0 / qpmax=69 / qpstep=4 / cplxblur=20.0 / qblur=0.5 / ip_ratio=1.40 / aq=1:1.00
Language : English
Default : Yes
Forced : No

Audio
ID : 2
Format : DTS
Format/Info : Digital Theater Systems
Codec ID : A_DTS
Duration : 1 h 47 min
Bit rate mode : Constant
Bit rate : 1 509 kb/s
Channel(s) : 2 channels
Channel layout : L R
Sampling rate : 48.0 kHz
Frame rate : 93.750 FPS (512 SPF)
Bit depth : 24 bits
Compression mode : Lossy
Stream size : 1.14 GiB (14%)
Language : English
Default : Yes
Forced : No

Menu
00:00:00.000 : en:Chapter 01
00:01:35.053 : en:Chapter 02
00:07:11.097 : en:Chapter 03
00:16:49.634 : en:Chapter 04
00:21:01.635 : en:Chapter 05
00:26:03.520 : en:Chapter 06
00:30:10.809 : en:Chapter 07
00:34:42.038 : en:Chapter 08
00:39:59.564 : en:Chapter 09
00:43:27.480 : en:Chapter 10
00:51:58.240 : en:Chapter 11
00:56:18.458 : en:Chapter 12
01:10:16.838 : en:Chapter 13
01:18:49.016 : en:Chapter 14
01:30:01.021 : en:Chapter 15
01:43:05.304 : en:Chapter 16
01:46:03.649 : en:Chapter 17
01:47:31.445 : en:Chapter 18





1 個附件 售價 大小 下載 時間

Shadow.Of.A.Doubt.1943.PROPER.1080p.BluRay.x264-CLASSiC.torrent 0 金幣 41.24K 1190 次 4月前

#1樓
發帖時間:2020-01-13 23:33:41   |   回復數:2
jokingcheung
一代宗師
謝謝分享
4月前 #2樓
911degrees
隱世仙人♂
非常感謝,謝謝分享
4月前 #3樓
游客組