coor
一代宗師

[更 早] [歐美] [動作] [BD-1080P] 海角擒兇 Saboteur.1942.PROPER.1080p.BluRay.x264-CLASSiC 8.08GB

-->

帖子完整標題:海角擒兇 Saboteur.1942.PROPER.1080p.BluRay.x264-CLASSiC 8.08GB




◎譯  名 海角擒兇
◎片  名 Saboteur
◎年  代 1942
◎產  地 美國
◎類  別 動作 / 驚悚
◎語  言 英語
◎上映日期 1942-04-24
◎IMDb評分 7.2/10 from 21717 users
◎IMDb鏈接 https://www.imdb.com/title/tt0035279
◎豆瓣評分 6.8/10 from 1421 users
◎豆瓣鏈接 https://movie.douban.com/subject/1295662/
◎片  長 108 分鐘
◎導  演 Alfred Hitchcock
◎編  劇 Peter Viertel / Joan Harrison / Dorothy Parker / Alfred Hitchcock
◎主  演 Priscilla Lane
      Robert Cummings
      Otto Kruger


◎標  簽 希區柯克 | 美國 | 懸疑 | AlfredHitchcock | 1942 | Alfred_Hitchcock | 美國電影 | 1940s

◎簡  介

  洛杉磯的飛機制造廠里,突然發生了一場火災,工人伯金(Robert Cummings 飾)和朋友簡奮勇救火,但簡不幸葬身火海,事后調查發現伯金遞給簡的滅火器中裝滿了電油,于是警方將伯金定為重大嫌疑人,展開搜捕。獲悉這一情況的伯金回憶后發現,滅火器實際出自一名叫做弗萊的工人之手,但警方并未給伯金說明的機會,危急時刻,伯金奮力逃出,追尋弗萊的去向為自己洗脫罪名。在弗萊工作過的農場,伯金發現農場主杜賓居然也跟此事有牽連,于是匆忙逃跑。亡命路途上,鉑金結識了廣告模特佩蒂(Priscilla Lane 飾),鉑金用誠摯打消了后者對自己的懷疑,與她結伴同行。在弗萊可能藏身的荒僻小鎮,伯金喬裝成杜賓的手下,打入了這個神秘的破壞組織內部……
Video
ID : 1
Format : AVC
Format/Info : Advanced Video Codec
Format profile : [email protected]
Format settings : CABAC / 4 Ref Frames
Format settings, CABAC : Yes
Format settings, Reference frames : 4 frames
Codec ID : V_MPEG4/ISO/AVC
Duration : 1 h 48 min
Bit rate : 8 940 kb/s
Width : 1 464 pixels
Height : 1 080 pixels
Display aspect ratio : 4:3
Frame rate mode : Constant
Frame rate : 23.976 (24000/1001) FPS
Color space : YUV
Chroma subsampling : 4:2:0
Bit depth : 8 bits
Scan type : Progressive
Bits/(Pixel*Frame) : 0.236
Stream size : 6.79 GiB (86%)
Writing library : x264 core 158 r2988 7817004
Encoding settings : cabac=1 / ref=4 / deblock=1:0:0 / analyse=0x3:0x133 / me=tesa / subme=10 / psy=1 / psy_rd=1.00:0.00 / mixed_ref=1 / me_range=24 / chroma_me=1 / trellis=2 / 8x8dct=1 / cqm=0 / deadzone=21,11 / fast_pskip=0 / chroma_qp_offset=-2 / threads=24 / lookahead_threads=4 / sliced_threads=0 / nr=0 / decimate=1 / interlaced=0 / bluray_compat=0 / constrained_intra=0 / bframes=8 / b_pyramid=0 / b_adapt=2 / b_bias=0 / direct=3 / weightb=1 / open_gop=0 / weightp=2 / keyint=240 / keyint_min=24 / scenecut=40 / intra_refresh=0 / rc_lookahead=60 / rc=2pass / mbtree=1 / bitrate=8940 / ratetol=1.0 / qcomp=0.60 / qpmin=0 / qpmax=69 / qpstep=4 / cplxblur=20.0 / qblur=0.5 / vbv_maxrate=78125 / vbv_bufsize=62500 / nal_hrd=none / filler=0 / ip_ratio=1.40 / aq=1:1.00
Default : Yes
Forced : No
Color range : Limited
Color primaries : BT.709
Transfer characteristics : BT.709
Matrix coefficients : BT.709

Audio
ID : 2
Format : DTS
Format/Info : Digital Theater Systems
Codec ID : A_DTS
Duration : 1 h 48 min
Bit rate mode : Constant
Bit rate : 1 509 kb/s
Channel(s) : 2 channels
Channel layout : L R
Sampling rate : 48.0 kHz
Frame rate : 93.750 FPS (512 SPF)
Bit depth : 24 bits
Compression mode : Lossy
Stream size : 1.15 GiB (14%)
Language : English
Default : Yes
Forced : No

Menu
00:00:00.000 : en:Chapter 01
00:01:29.089 : en:Chapter 02
00:08:06.861 : en:Chapter 03
00:11:55.924 : en:Chapter 04
00:16:54.931 : en:Chapter 05
00:25:23.605 : en:Chapter 06
00:28:14.693 : en:Chapter 07
00:33:02.856 : en:Chapter 08
00:36:44.911 : en:Chapter 09
00:40:56.788 : en:Chapter 10
00:52:13.130 : en:Chapter 11
01:00:56.903 : en:Chapter 12
01:04:57.352 : en:Chapter 13
01:12:01.484 : en:Chapter 14
01:24:41.076 : en:Chapter 15
01:34:16.484 : en:Chapter 16
01:38:22.855 : en:Chapter 17
01:48:30.629 : en:Chapter 18





1 個附件 售價 大小 下載 時間

Saboteur.1942.PROPER.1080p.BluRay.x264-CLASSiC.torrent 0 金幣 41.14K 455 次 4月前

#1樓
發帖時間:2020-01-13 23:35:41   |   回復數:1
911degrees
隱世仙人♂
非常感謝,謝謝分享
4月前 #2樓
游客組