coor
一代宗師

[2019] [歐美] [其他] [BD-1080P] 西部明星/西部之星 Western.Stars.2019.1080p.BluRay.x264-CADAVER 5.47GB

-->

帖子完整標題:西部明星/西部之星 Western.Stars.2019.1080p.BluRay.x264-CADAVER 5.47GB




◎譯  名 西部明星 / 西部之星
◎片  名 Western Stars
◎年  代 2019
◎產  地 美國
◎類  別 紀錄片 / 音樂
◎語  言 英語
◎上映日期 2019-09-12(多倫多電影節) / 2019-10-25(美國)
◎IMDb評分 7.6/10 from 747 users
◎IMDb鏈接 https://www.imdb.com/title/tt10687158
◎豆瓣評分 0/10 from 0 users
◎豆瓣鏈接 https://movie.douban.com/subject/34663538/
◎片  長 83分鐘
◎導  演 托姆·齊穆尼 Thom Zimny / 布魯斯·斯普林斯汀 Bruce Springsteen
◎主  演 布魯斯·斯普林斯汀 Bruce Springsteen


◎標  簽 美國 | Documentary | 2019 | 紀錄片 | 等候 | 電影 | 搖滾 | music

◎簡  介

  該片也是70歲的斯普林斯汀的最新專輯的同名電影,他與《斯普林斯汀在百老匯》的導演Thom Zimny一起執導,聚焦他如今的生活、心態和對音樂和舞臺的感悟,還有他那有100年歷史、“充滿靈性”的谷倉,他如何回頭和向前看,“我花了35年除掉自己性格中那些毀滅性的東西”。

◎獲獎情況

  第67屆美國音效剪輯協會獎(2020)
  金卷軸獎 最佳音樂片音樂剪輯(提名)
Video
ID : 1
Format : AVC
Format/Info : Advanced Video Codec
Format profile : [email protected]
Format settings : CABAC / 5 Ref Frames
Format settings, CABAC : Yes
Format settings, Reference frames : 5 frames
Codec ID : V_MPEG4/ISO/AVC
Duration : 1 h 23 min
Bit rate : 8 767 kb/s
Width : 1 920 pixels
Height : 808 pixels
Display aspect ratio : 2.40:1
Frame rate mode : Constant
Frame rate : 23.976 (24000/1001) FPS
Color space : YUV
Chroma subsampling : 4:2:0
Bit depth : 8 bits
Scan type : Progressive
Bits/(Pixel*Frame) : 0.236
Stream size : 5.09 GiB (93%)
Writing library : x264 core 158 r2988 7817004
Encoding settings : cabac=1 / ref=5 / deblock=1:-3:-3 / analyse=0x3:0x133 / me=umh / subme=9 / psy=1 / psy_rd=1.00:0.00 / mixed_ref=1 / me_range=24 / chroma_me=1 / trellis=1 / 8x8dct=1 / cqm=0 / deadzone=21,11 / fast_pskip=0 / chroma_qp_offset=-2 / threads=24 / lookahead_threads=4 / sliced_threads=0 / nr=0 / decimate=1 / interlaced=0 / bluray_compat=0 / constrained_intra=0 / bframes=8 / b_pyramid=2 / b_adapt=2 / b_bias=0 / direct=3 / weightb=1 / open_gop=0 / weightp=2 / keyint=250 / keyint_min=23 / scenecut=40 / intra_refresh=0 / rc_lookahead=60 / rc=2pass / mbtree=1 / bitrate=8767 / ratetol=1.0 / qcomp=0.60 / qpmin=0 / qpmax=69 / qpstep=4 / cplxblur=20.0 / qblur=0.5 / vbv_maxrate=62500 / vbv_bufsize=78125 / nal_hrd=none / filler=0 / ip_ratio=1.40 / aq=1:1.00
Default : Yes
Forced : No

Audio
ID : 2
Format : AC-3
Format/Info : Audio Coding 3
Commercial name : Dolby Digital
Codec ID : A_AC3
Duration : 1 h 23 min
Bit rate mode : Constant
Bit rate : 640 kb/s
Channel(s) : 6 channels
Channel layout : L R C LFE Ls Rs
Sampling rate : 48.0 kHz
Frame rate : 31.250 FPS (1536 SPF)
Bit depth : 16 bits
Compression mode : Lossy
Stream size : 381 MiB (7%)
Language : English
Service kind : Complete Main
Default : Yes
Forced : No

Menu
00:00:00.000 : en:Chapter 01
00:00:05.172 : en:Chapter 02
00:03:47.811 : en:Chapter 03
00:09:11.593 : en:Chapter 04
00:15:24.799 : en:Chapter 05
00:20:37.862 : en:Chapter 06
00:25:14.263 : en:Chapter 07
00:31:14.164 : en:Chapter 08
00:37:18.528 : en:Chapter 09
00:43:57.844 : en:Chapter 10
00:48:21.816 : en:Chapter 11
00:50:21.060 : en:Chapter 12
00:58:10.070 : en:Chapter 13
01:03:04.322 : en:Chapter 14
01:09:51.729 : en:Chapter 15
01:15:58.471 : en:Chapter 16
01:18:59.526 : en:Chapter 17





1 個附件 售價 大小 下載 時間

Western.Stars.2019.1080p.BluRay.x264-CADAVER.torrent 0 金幣 28.21K 301 次 4月前

#1樓
發帖時間:2020-01-13 23:39:34   |   回復數:1
911degrees
隱世仙人♂
非常感謝,謝謝分享
4月前 #2樓
游客組