coor
一代宗師

[更 早] [歐美] [劇情] [BD-720P] 圣誕述異 The.Holly.and.the.Ivy.1952.720p.BluRay.x264-GHOULS 3.28GB

-->

帖子完整標題:圣誕述異 The.Holly.and.the.Ivy.1952.720p.BluRay.x264-GHOULS 3.28GB




◎譯  名 圣誕述異
◎片  名 The Holly and the Ivy
◎年  代 1952
◎產  地 英國
◎類  別 劇情
◎語  言 英語
◎上映日期 1952-12-22
◎IMDb評分 7.6/10 from 902 users
◎IMDb鏈接 https://www.imdb.com/title/tt0044716
◎豆瓣評分 0/10 from 0 users
◎豆瓣鏈接 https://movie.douban.com/subject/1304956/
◎片  長 83 分鐘
◎導  演 George More O'Ferrall
◎編  劇 Anatole de Grunwald / Wynyard Browne
◎主  演 拉爾夫·理查德森 Ralph Richardson
      西莉亞·約翰遜 Celia Johnson
      瑪格麗特·萊頓 Margaret Leighton
      丹霍姆·艾略特 Denholm Elliott
      Hugh Williams


◎標  簽 英國 | 1950s | RalphRichardson | Margaret_Leighton | DenholmElliott | @UK/Ireland

◎簡  介

  A heartwarming tale of an English minister and his family reunited at Christmas time. Their story includes a remembrance of their WWII trials
Video
ID : 1
Format : AVC
Format/Info : Advanced Video Codec
Format profile : [email protected]
Format settings : CABAC / 11 Ref Frames
Format settings, CABAC : Yes
Format settings, Reference frames : 11 frames
Codec ID : V_MPEG4/ISO/AVC
Duration : 1 h 20 min
Bit rate : 5 129 kb/s
Width : 992 pixels
Height : 720 pixels
Display aspect ratio : 1.378
Frame rate mode : Constant
Frame rate : 24.000 FPS
Color space : YUV
Chroma subsampling : 4:2:0
Bit depth : 8 bits
Scan type : Progressive
Bits/(Pixel*Frame) : 0.299
Stream size : 2.89 GiB (88%)
Writing library : x264 core 158 r2988 7817004
Encoding settings : cabac=1 / ref=11 / deblock=1:-3:-3 / analyse=0x3:0x133 / me=umh / subme=9 / psy=1 / psy_rd=1.00:0.00 / mixed_ref=1 / me_range=24 / chroma_me=1 / trellis=1 / 8x8dct=1 / cqm=0 / deadzone=21,11 / fast_pskip=0 / chroma_qp_offset=-2 / threads=22 / lookahead_threads=3 / sliced_threads=0 / nr=0 / decimate=1 / interlaced=0 / bluray_compat=0 / constrained_intra=0 / bframes=8 / b_pyramid=2 / b_adapt=2 / b_bias=0 / direct=3 / weightb=1 / open_gop=0 / weightp=2 / keyint=250 / keyint_min=24 / scenecut=40 / intra_refresh=0 / rc_lookahead=60 / rc=2pass / mbtree=1 / bitrate=5129 / ratetol=1.0 / qcomp=0.60 / qpmin=0 / qpmax=69 / qpstep=4 / cplxblur=20.0 / qblur=0.5 / vbv_maxrate=62500 / vbv_bufsize=78125 / nal_hrd=none / filler=0 / ip_ratio=1.40 / aq=1:1.00
Default : Yes
Forced : No

Audio
ID : 2
Format : FLAC
Format/Info : Free Lossless Audio Codec
Codec ID : A_FLAC
Duration : 1 h 20 min
Bit rate mode : Variable
Bit rate : 689 kb/s
Channel(s) : 2 channels
Channel layout : L R
Sampling rate : 48.0 kHz
Frame rate : 10.417 FPS (4608 SPF)
Bit depth : 24 bits
Compression mode : Lossless
Stream size : 398 MiB (12%)
Writing library : Lavf58.29.100
Language : English
Default : Yes
Forced : No

Menu
00:00:00.000 : en:Chapter 01
00:08:20.333 : en:Chapter 02
00:13:32.542 : en:Chapter 03
00:23:05.292 : en:Chapter 04
00:29:50.625 : en:Chapter 05
00:34:34.833 : en:Chapter 06
00:45:40.542 : en:Chapter 07
00:53:25.042 : en:Chapter 08
00:59:08.625 : en:Chapter 09
01:08:34.375 : en:Chapter 10
01:16:57.458 : en:Chapter 11
01:18:53.958 : en:Chapter 12





1 個附件 售價 大小 下載 時間

The.Holly.and.the.Ivy.1952.720p.BluRay.x264-GHOULS.torrent 0 金幣 33.65K 238 次 4月前

#1樓
發帖時間:2020-01-13 23:41:36   |   回復數:2
liyouchai
隱世仙人♂
謝謝樓主分享資源
4月前 #2樓
911degrees
隱世仙人♂
非常感謝,謝謝分享
4月前 #3樓
游客組