coor
一代宗師

[2014] [歐美] [其他] [WEB-720P] 巴克利超級馬拉松:測試年輕人極限的賽事/巴克利超級馬拉松:測試年輕人極限的賽事 The.Barkley.Marathons.The.Race.That.Eats

-->

帖子完整標題:巴克利超級馬拉松:測試年輕人極限的賽事/巴克利超級馬拉松:測試年輕人極限的賽事 The.Barkley.Marathons.The.Race.That.Eats.Its.Young.2014.720p.AMZN.WEBRip.DDP2.0.x264-TEPES 3.47GB




◎譯  名 巴克利超級馬拉松:測試年輕人極限的賽事 / 巴克利超級馬拉松:測試年輕人極限的賽事(臺)
◎片  名 The Barkley Marathons: The Race That Eats Its Young
◎年  代 2014
◎產  地 美國
◎類  別 紀錄片 / 歷史 / 冒險
◎語  言 英語
◎上映日期 2014-10-26
◎IMDb評分 7.8/10 from 4144 users
◎IMDb鏈接 https://www.imdb.com/title/tt2400291
◎豆瓣評分 8.8/10 from 83 users
◎豆瓣鏈接 https://movie.douban.com/subject/26373482/
◎片  長 89分鐘
◎導  演 Annika Iltis / Timothy James Kane

◎標  簽 紀錄片 | 美國 | 戶外 | Running | Documentary | 2014 | 跑步 | Netflix

◎簡  介

  這項馬拉松的靈感源自史上著名的越獄事件,比賽極為嚴峻,考驗運動員的耐力和毅力。參賽者中,跑完全程的人卻少之又少。
Video
ID : 1
Format : AVC
Format/Info : Advanced Video Codec
Format profile : [email protected]
Format settings : CABAC / 4 Ref Frames
Format settings, CABAC : Yes
Format settings, Reference frames : 4 frames
Codec ID : V_MPEG4/ISO/AVC
Duration : 1 h 29 min
Bit rate mode : Constant
Bit rate : 5 306 kb/s
Nominal bit rate : 6 000 kb/s
Width : 1 280 pixels
Height : 720 pixels
Display aspect ratio : 16:9
Frame rate mode : Constant
Frame rate : 23.976 (24000/1001) FPS
Color space : YUV
Chroma subsampling : 4:2:0
Bit depth : 8 bits
Scan type : Progressive
Bits/(Pixel*Frame) : 0.240
Stream size : 3.33 GiB (96%)
Default : Yes
Forced : No
Color range : Limited
Color primaries : BT.709
Transfer characteristics : BT.709
Matrix coefficients : BT.709

Audio
ID : 2
Format : E-AC-3
Format/Info : Enhanced AC-3
Commercial name : Dolby Digital Plus
Codec ID : A_EAC3
Duration : 1 h 29 min
Bit rate mode : Constant
Bit rate : 224 kb/s
Channel(s) : 2 channels
Channel layout : L R
Sampling rate : 48.0 kHz
Frame rate : 31.250 FPS (1536 SPF)
Compression mode : Lossy
Stream size : 144 MiB (4%)
Language : English
Service kind : Complete Main
Default : Yes
Forced : No

Text
ID : 3
Format : UTF-8
Codec ID : S_TEXT/UTF8
Codec ID/Info : UTF-8 Plain Text
Duration : 1 h 27 min
Bit rate : 84 b/s
Count of elements : 1735
Stream size : 54.5 KiB (0%)
Title : SDH
Language : English
Default : No
Forced : No





1 個附件 售價 大小 下載 時間

The.Barkley.Marathons.The.Race.That.Eats.Its.Young.2014.720p.AMZN.WEBRip.DDP2.0.x264-TEPES.torrent 0 金幣 35.31K 294 次 4月前

#1樓
發帖時間:2020-01-14 00:20:39   |   回復數:2
jokingcheung
一代宗師
謝謝分享
4月前 #2樓
911degrees
隱世仙人♂
非常感謝,謝謝分享
4月前 #3樓
游客組