coor
一代宗師

[2017] [其他] [其他] [WEB-1080P] 滑雪交響 Symphony.on.Skis.2017.1080p.AMZN.WEBRip.DDP2.0.x264-TEPES 3.77GB

-->

帖子完整標題:滑雪交響 Symphony.on.Skis.2017.1080p.AMZN.WEBRip.DDP2.0.x264-TEPES 3.77GB




◎譯  名 滑雪交響
◎片  名 Symphony on Skis
◎年  代 2017
◎產  地 新西蘭 New Zealand
◎類  別 紀錄片
◎語  言 英語
◎上映日期 2018-05-11(新西蘭)
◎IMDb鏈接 https://www.imdb.com/title/tt7606894
◎豆瓣評分 0/10 from 0 users
◎豆瓣鏈接 https://movie.douban.com/subject/30192399/
◎片  長 60分鐘
◎導  演 Carla Braun-Elwert
◎主  演 Carla Braun-Elwert
      Elke Braun-Elwert
      Keith Payne


◎標  簽 滑雪

◎簡  介

  1985年德國人Gottlieb Braun-Elwert創造了一項驚人的滑雪紀錄:他從南島中心滑到西海岸,穿越了南阿爾卑斯山的主要冰川,覆蓋了40公里和4000立方米,僅僅用了18個小時。三十年后,一個探險小分隊準備重滑他當年的路線,其中就包括他的女兒Carla.
Video
ID : 1
Format : AVC
Format/Info : Advanced Video Codec
Format profile : [email protected]
Format settings : CABAC / 4 Ref Frames
Format settings, CABAC : Yes
Format settings, Reference frames : 4 frames
Codec ID : V_MPEG4/ISO/AVC
Duration : 1 h 0 min
Bit rate mode : Constant
Bit rate : 8 760 kb/s
Nominal bit rate : 10 000 kb/s
Width : 1 920 pixels
Height : 1 080 pixels
Display aspect ratio : 16:9
Frame rate mode : Constant
Frame rate : 25.000 FPS
Color space : YUV
Chroma subsampling : 4:2:0
Bit depth : 8 bits
Scan type : Progressive
Bits/(Pixel*Frame) : 0.169
Stream size : 3.67 GiB (97%)
Default : Yes
Forced : No
Color range : Limited
Color primaries : BT.709
Transfer characteristics : BT.709
Matrix coefficients : BT.709

Audio
ID : 2
Format : E-AC-3
Format/Info : Enhanced AC-3
Commercial name : Dolby Digital Plus
Codec ID : A_EAC3
Duration : 1 h 0 min
Bit rate mode : Constant
Bit rate : 224 kb/s
Channel(s) : 2 channels
Channel layout : L R
Sampling rate : 48.0 kHz
Frame rate : 31.250 FPS (1536 SPF)
Compression mode : Lossy
Stream size : 96.2 MiB (2%)
Language : English
Service kind : Complete Main
Default : Yes
Forced : No

Text #1
ID : 3
Format : UTF-8
Codec ID : S_TEXT/UTF8
Codec ID/Info : UTF-8 Plain Text
Duration : 57 min 46 s
Bit rate : 58 b/s
Count of elements : 453
Stream size : 24.8 KiB (0%)
Title : SDH
Language : English
Default : No
Forced : No

Text #2
ID : 4
Format : UTF-8
Codec ID : S_TEXT/UTF8
Codec ID/Info : UTF-8 Plain Text
Duration : 57 min 46 s
Bit rate : 58 b/s
Count of elements : 453
Stream size : 24.8 KiB (0%)
Title : SDH
Language : English
Default : No
Forced : No





1 個附件 售價 大小 下載 時間

Symphony.on.Skis.2017.1080p.AMZN.WEBRip.DDP2.0.x264-TEPES.torrent 0 金幣 38.23K 252 次 4月前

#1樓
發帖時間:2020-01-14 00:22:38   |   回復數:1
911degrees
隱世仙人♂
非常感謝,謝謝分享
4月前 #2樓
游客組