coor
一代宗師

[2011] [其他] [其他] [WEB-720P] 粉絲帶公司 Pink.Ribbons.Inc.2011.720p.AMZN.WEBRip.DDP5.1.x264-TEPES 4.30GB

-->

帖子完整標題:粉絲帶公司 Pink.Ribbons.Inc.2011.720p.AMZN.WEBRip.DDP5.1.x264-TEPES 4.30GB




◎譯  名 粉絲帶公司
◎片  名 Pink Ribbons, Inc.
◎年  代 2011
◎產  地 加拿大
◎類  別 紀錄片
◎語  言 英語
◎上映日期 2011
◎IMDb評分 7.2/10 from 662 users
◎IMDb鏈接 https://www.imdb.com/title/tt2035599
◎豆瓣評分 0/10 from 0 users
◎豆瓣鏈接 https://movie.douban.com/subject/6793336/
◎片  長 98分鐘
◎導  演 蕾雅·普爾 Léa Pool

◎標  簽 加拿大 | 紀錄片 | 女性 | 2010s | 美國 | 紀錄片 | Documentary | 紀錄

◎簡  介

  Lea Pool’s devastating documentary about the industry and “culture” around breast cancer, addresses the rise of corporate involvement in fund-raising for charities (as one activist describes it “cause marketing”) and the impact it has had on research into the disease. Powerful and incendiary, the film is an important and timely piece from one of our finest filmmakers.
Video
ID : 1
Format : AVC
Format/Info : Advanced Video Codec
Format profile : [email protected]
Format settings : CABAC / 4 Ref Frames
Format settings, CABAC : Yes
Format settings, Reference frames : 4 frames
Format settings, GOP : M=4, N=48
Codec ID : V_MPEG4/ISO/AVC
Duration : 1 h 37 min
Bit rate mode : Constant
Bit rate : 5 652 kb/s
Nominal bit rate : 6 000 kb/s
Width : 1 280 pixels
Height : 720 pixels
Display aspect ratio : 16:9
Frame rate mode : Constant
Frame rate : 23.976 (24000/1001) FPS
Color space : YUV
Chroma subsampling : 4:2:0
Bit depth : 8 bits
Scan type : Progressive
Bits/(Pixel*Frame) : 0.256
Stream size : 3.86 GiB (90%)
Language : English
Default : Yes
Forced : No
Color range : Limited
Color primaries : BT.709
Transfer characteristics : BT.709
Matrix coefficients : BT.709

Audio
ID : 2
Format : E-AC-3
Format/Info : Enhanced AC-3
Commercial name : Dolby Digital Plus
Codec ID : A_EAC3
Duration : 1 h 37 min
Bit rate mode : Constant
Bit rate : 640 kb/s
Channel(s) : 6 channels
Channel layout : L R C LFE Ls Rs
Sampling rate : 48.0 kHz
Frame rate : 31.250 FPS (1536 SPF)
Compression mode : Lossy
Stream size : 448 MiB (10%)
Language : English
Service kind : Complete Main
Default : Yes
Forced : No

Text
ID : 3
Format : UTF-8
Codec ID : S_TEXT/UTF8
Codec ID/Info : UTF-8 Plain Text
Duration : 1 h 37 min
Bit rate : 92 b/s
Count of elements : 1883
Stream size : 66.0 KiB (0%)
Title : SDH
Language : English
Default : No
Forced : No





1 個附件 售價 大小 下載 時間

Pink.Ribbons.Inc.2011.720p.AMZN.WEBRip.DDP5.1.x264-TEPES.torrent 0 金幣 43.56K 147 次 4月前

#1樓
發帖時間:2020-01-14 00:50:43   |   回復數:2
liyouchai
隱世仙人♂
謝謝樓主分享資源
4月前 #2樓
911degrees
隱世仙人♂
非常感謝,謝謝分享
4月前 #3樓
游客組