coor
一代宗師

[2009] [歐美] [其他] [BD-1080P] 麥克·布雷 相約麥迪遜花園廣場演唱會 Michael.Buble.Meets.Madison.Square.Garden.2009.1080p.BluRay.x

-->

帖子完整標題:麥克·布雷 相約麥迪遜花園廣場演唱會 Michael.Buble.Meets.Madison.Square.Garden.2009.1080p.BluRay.x264-HANDJOB 4.64GB




◎譯  名 麥克·布雷 相約麥迪遜花園廣場演唱會
◎片  名 Michael Bublé Meets Madison Square Garden
◎年  代 2009
◎產  地 美國
◎類  別 紀錄片 / 音樂
◎語  言 英語
◎IMDb評分 8.4/10 from 44 users
◎IMDb鏈接 https://www.imdb.com/title/tt1522827
◎豆瓣評分 9.4/10 from 42 users
◎豆瓣鏈接 https://movie.douban.com/subject/4854063/
◎導  演 Jason Hehir / Dick Carruthers
◎主  演 邁克爾·布雷 Michael Bublé


◎標  簽 MichaelBublé | Live | Concert | 紀錄片 | 音樂 | 演唱會 | 音樂電影 | 當落

◎簡  介

  01.I'm Your Man
  02.Me and Mrs. Jones
  03.Call Me Irresponsible
  04.I've got the World On A String
  05.Lost
  06.Feeling Good
  07.Home
  08.Everything
  09.Crazy Little Thing Called Love
  10.Song For You
  60 minutes of live performance, interviews and backstage footage
  Bonus Performances
  Stardust
  You're Nobody Till Somebody Loves You
Video
ID : 1
Format : AVC
Format/Info : Advanced Video Codec
Format profile : [email protected]
Format settings : CABAC / 4 Ref Frames
Format settings, CABAC : Yes
Format settings, Reference frames : 4 frames
Codec ID : V_MPEG4/ISO/AVC
Duration : 1 h 1 min
Bit rate : 10.2 Mb/s
Width : 1 914 pixels
Height : 1 080 pixels
Display aspect ratio : 16:9
Frame rate mode : Constant
Frame rate : 23.976 (24000/1001) FPS
Color space : YUV
Chroma subsampling : 4:2:0
Bit depth : 8 bits
Scan type : Progressive
Bits/(Pixel*Frame) : 0.206
Stream size : 4.36 GiB (94%)
Writing library : x264 core 157 r2935 545de2f
Encoding settings : cabac=1 / ref=4 / deblock=1:-3:-3 / analyse=0x3:0x133 / me=umh / subme=10 / psy=1 / psy_rd=1.00:0.00 / mixed_ref=1 / me_range=32 / chroma_me=1 / trellis=2 / 8x8dct=1 / cqm=0 / deadzone=21,11 / fast_pskip=0 / chroma_qp_offset=-2 / threads=34 / lookahead_threads=8 / sliced_threads=0 / nr=0 / decimate=0 / interlaced=0 / bluray_compat=0 / constrained_intra=0 / bframes=16 / b_pyramid=2 / b_adapt=2 / b_bias=0 / direct=3 / weightb=1 / open_gop=0 / weightp=2 / keyint=240 / keyint_min=24 / scenecut=40 / intra_refresh=0 / rc_lookahead=60 / rc=crf / mbtree=0 / crf=22.5 / qcomp=0.60 / qpmin=0 / qpmax=69 / qpstep=4 / vbv_maxrate=62500 / vbv_bufsize=78125 / crf_max=0.0 / nal_hrd=none / filler=0 / ip_ratio=1.40 / pb_ratio=1.30 / aq=2:1.00
Default : Yes
Forced : No
Color range : Limited
Color primaries : BT.709
Transfer characteristics : BT.709
Matrix coefficients : BT.709

Audio
ID : 2
Format : AC-3
Format/Info : Audio Coding 3
Commercial name : Dolby Digital
Codec ID : A_AC3
Duration : 1 h 1 min
Bit rate mode : Constant
Bit rate : 640 kb/s
Channel(s) : 6 channels
Channel layout : L R C LFE Ls Rs
Sampling rate : 48.0 kHz
Frame rate : 31.250 FPS (1536 SPF)
Bit depth : 16 bits
Compression mode : Lossy
Stream size : 280 MiB (6%)
Language : English
Service kind : Complete Main
Default : Yes
Forced : No

Text #1
ID : 3
Format : PGS
Muxing mode : zlib
Codec ID : S_HDMV/PGS
Codec ID/Info : Picture based subtitle format used on BDs/HD-DVDs
Duration : 58 min 1 s
Bit rate : 27.3 kb/s
Count of elements : 1126
Stream size : 11.3 MiB (0%)
Language : English
Default : No
Forced : No

Text #2
ID : 4
Format : PGS
Muxing mode : zlib
Codec ID : S_HDMV/PGS
Codec ID/Info : Picture based subtitle format used on BDs/HD-DVDs
Duration : 58 min 1 s
Bit rate : 27.4 kb/s
Count of elements : 1118
Stream size : 11.3 MiB (0%)
Language : French
Default : No
Forced : No

Text #3
ID : 5
Format : PGS
Muxing mode : zlib
Codec ID : S_HDMV/PGS
Codec ID/Info : Picture based subtitle format used on BDs/HD-DVDs
Duration : 58 min 1 s
Bit rate : 30.7 kb/s
Count of elements : 1154
Stream size : 12.8 MiB (0%)
Language : German
Default : No
Forced : No

Text #4
ID : 6
Format : PGS
Muxing mode : zlib
Codec ID : S_HDMV/PGS
Codec ID/Info : Picture based subtitle format used on BDs/HD-DVDs
Duration : 58 min 1 s
Bit rate : 26.8 kb/s
Count of elements : 1126
Stream size : 11.1 MiB (0%)
Language : Italian
Default : No
Forced : No

Text #5
ID : 7
Format : PGS
Muxing mode : zlib
Codec ID : S_HDMV/PGS
Codec ID/Info : Picture based subtitle format used on BDs/HD-DVDs
Duration : 58 min 1 s
Bit rate : 28.6 kb/s
Count of elements : 1118
Stream size : 11.9 MiB (0%)
Language : Portuguese
Default : No
Forced : No

Menu
00:00:00.000 : :Chapter 1
00:05:00.008 : :Chapter 2
00:10:00.100 : :Chapter 3
00:15:00.066 : :Chapter 4
00:20:00.074 : :Chapter 5
00:25:00.040 : :Chapter 6
00:30:00.090 : :Chapter 7
00:35:00.056 : :Chapter 8
00:40:00.064 : :Chapter 9
00:45:00.031 : :Chapter 10
00:50:00.039 : :Chapter 11
00:55:00.047 : :Chapter 12
01:00:00.055 : :Chapter 13





1 個附件 售價 大小 下載 時間

Michael.Buble.Meets.Madison.Square.Garden.2009.1080p.BluRay.x264-HANDJOB.torrent 0 金幣 47.01K 1288 次 4月前

#1樓
發帖時間:2020-01-14 02:24:14   |   回復數:2
jokingcheung
一代宗師
謝謝分享
4月前 #2樓
911degrees
隱世仙人♂
非常感謝,謝謝分享
4月前 #3樓
游客組