coor
一代宗師

[2011] [其他] [其他] [WEB-720P] 上坡路 The.Road.Uphill.2011.720p.AMZN.WEBRip.DDP2.0.x264-TEPES 2.96GB

-->

帖子完整標題:上坡路 The.Road.Uphill.2011.720p.AMZN.WEBRip.DDP2.0.x264-TEPES 2.96GB




◎譯  名 上坡路
◎片  名 The Road Uphill
◎年  代 2011
◎產  地 盧森堡
◎類  別 紀錄片 / 運動
◎語  言 英語
◎上映日期 2011-12-23(盧森堡)
◎IMDb評分 7.5/10 from 126 users
◎IMDb鏈接 https://www.imdb.com/title/tt1891956
◎豆瓣評分 0/10 from 0 users
◎豆瓣鏈接 https://movie.douban.com/subject/10450712/
◎片  長 90分鐘
◎導  演 Jean-Louis Schuller
◎主  演 Andy Schleck
      Fr?nk Schleck
      Jens Voigt
      Johny Schleck


◎標  簽 自行車 | 紀錄片 | 運動 | 上坡路 | 盧森堡 | Documentary | 成長 | 騎

◎簡  介

  埃文斯和康塔多也許拿到了環法賽冠軍,但銀幕英雄的封號還屬施萊克兄弟,一部關于他們兄弟倆的紀錄片"The Road Uphill"(上坡路)近日在盧森堡電影院全面上映。
  90分鐘的影片被制片工作室稱之為“對施萊克兄弟的近距離的影像記錄,以及承擔重責的車隊如何不負國家的殷切期望?!背耸┤R克兄弟這對主角外,崔克車隊的盧森堡籍車手也幾乎全體出動,協助電影制作。
  制片人蒂爾特格斯承認他在攝制前就心折于施萊克這個運動世家的魅力;“我有六個孩子,他們都崇拜施萊克兄弟,就我個人來說,我是老一輩的車迷,屬于兄弟倆的父親約翰尼·施萊克的鐵桿粉絲,但施萊克兄弟為盧森堡和自行車運動做出的貢獻,令我心懷愛戴?!?br />  紀錄片《The Road Uphill》聚焦于今年環法賽場,天天地追隨著施萊克兄弟倆的身影在片頭就出現的安迪·施萊克并沒有掩飾自己的雄心:
  “我明白如果今年環法得到亞軍,對我來說就是失敗?!?br />  當然,,最終2011年環法賽小施萊克還是落后埃文斯1:34第三次獲得環法賽亞軍。但這次失利,比奪冠讓影片更有噱頭。電影制作人舒勒并非自行車運動專家,他坦承道,無論人性角度還是作為朋友,他都很希望小施萊克能奪冠,但是如果他必須講個故事的話,主角最好未能如愿以償才會更有戲劇張力?!?br />  明星陣容還包括崔克車隊的領隊坎切拉拉(Fabian Cancellara),沃伊特(Jens Voigt),奧格雷迪(Stuart O'Grady)和總經理奈加德(Brian Nygaard),體育總監安德森(Kim Andersen),甚至還有今年環意賽摔車身亡的比利時車手維蘭特(Wouter Weylandt)的珍貴影像。
  兄弟倆的老爸,前公路車手約翰尼 施萊克(Johny Schleck)當然也少不了插上一腳,英國ITV電視臺的利吉特(Phil Liggett)和法國隊報的布魯內爾兩名記者都為影片提供了專業解說。
Video
ID : 1
Format : AVC
Format/Info : Advanced Video Codec
Format profile : [email protected]
Format settings : CABAC / 4 Ref Frames
Format settings, CABAC : Yes
Format settings, Reference frames : 4 frames
Codec ID : V_MPEG4/ISO/AVC
Duration : 1 h 29 min
Bit rate mode : Constant
Bit rate : 4 534 kb/s
Nominal bit rate : 6 000 kb/s
Width : 1 280 pixels
Height : 688 pixels
Display aspect ratio : 1.85:1
Frame rate mode : Constant
Frame rate : 25.000 FPS
Color space : YUV
Chroma subsampling : 4:2:0
Bit depth : 8 bits
Scan type : Progressive
Bits/(Pixel*Frame) : 0.206
Stream size : 2.82 GiB (95%)
Default : Yes
Forced : No
Color range : Limited
Color primaries : BT.709
Transfer characteristics : BT.709
Matrix coefficients : BT.709

Audio
ID : 2
Format : E-AC-3
Format/Info : Enhanced AC-3
Commercial name : Dolby Digital Plus
Codec ID : A_EAC3
Duration : 1 h 29 min
Bit rate mode : Constant
Bit rate : 224 kb/s
Channel(s) : 2 channels
Channel layout : L R
Sampling rate : 48.0 kHz
Frame rate : 31.250 FPS (1536 SPF)
Compression mode : Lossy
Stream size : 143 MiB (5%)
Language : English
Service kind : Complete Main
Default : Yes
Forced : No

Text
ID : 3
Format : UTF-8
Codec ID : S_TEXT/UTF8
Codec ID/Info : UTF-8 Plain Text
Duration : 1 h 23 min
Bit rate : 40 b/s
Count of elements : 675
Stream size : 24.7 KiB (0%)
Title : SDH
Language : English
Default : No
Forced : No





1 個附件 售價 大小 下載 時間

The.Road.Uphill.2011.720p.AMZN.WEBRip.DDP2.0.x264-TEPES.torrent 0 金幣 30.18K 140 次 4月前

#1樓
發帖時間:2020-01-14 02:57:40   |   回復數:2
jokingcheung
一代宗師
謝謝分享
4月前 #2樓
911degrees
隱世仙人♂
非常感謝,謝謝分享
4月前 #3樓
游客組