coor
一代宗師

[2019] [歐美] [劇情] [WEB-1080P] 布魯克林秘案/布魯克林孤兒 Motherless.Brooklyn.2019.1080p.WEBRip.DD5.1.x264-CM 5.71GB

-->

帖子完整標題:布魯克林秘案/布魯克林孤兒 Motherless.Brooklyn.2019.1080p.WEBRip.DD5.1.x264-CM 5.71GB




◎譯  名 布魯克林秘案 / 布魯克林孤兒(臺) / 布魯克林的流浪兒 / 無母之城(港)
◎片  名 Motherless Brooklyn
◎年  代 2019
◎產  地 美國
◎類  別 劇情 / 犯罪
◎語  言 英語
◎上映日期 2019-08-30(特柳賴德電影節) / 2019-09-10(多倫多電影節) / 2019-11-01(美國)
◎IMDb評分 7.1/10 from 8784 users
◎IMDb鏈接 https://www.imdb.com/title/tt0385887
◎豆瓣評分 7.8/10 from 948 users
◎豆瓣鏈接 https://movie.douban.com/subject/1469353/
◎片  長 144分鐘
◎導  演 愛德華·諾頓 Edward Norton
◎編  劇 愛德華·諾頓 Edward Norton / 喬納森·勒瑟姆 Jonathan Lethem
◎主  演 布魯斯·威利斯 Bruce Willis
      威廉·達福 Willem Dafoe
      愛德華·諾頓 Edward Norton
      古古·姆巴塔-勞 Gugu Mbatha-Raw
      亞歷克·鮑德溫 Alec Baldwin
      鮑比·坎納瓦爾 Bobby Cannavale
      萊斯利·曼恩 Leslie Mann
      伊?!ぬK普利 Ethan Suplee
      費舍·史蒂芬斯 Fisher Stevens
      達拉斯·羅伯特斯 Dallas Roberts
      邁克爾·肯尼斯·威廉姆斯 Michael Kenneth Williams
      切莉·瓊斯 Cherry Jones
      喬什·帕斯 Josh Pais
      羅伯特·維斯多姆 Robert Wisdom
      斯蒂芬·阿德利·葛爾蓋 Stephen Adly Guirgis
      桃樂絲·麥卡錫 Doris McCarthy
      拉杜·斯平格爾 Radu Spinghel
      黛博拉·安格 Deborah Unger
      奧利·哈斯基維 Olli Haaskivi
      列尼斯·德洛桑托斯 Leonys Delossantos
      布萊斯·科里根 Blaise Corrigan
      羅伯特·邁爾斯 Robert Myers
      凱蒂·戴維斯 Katy Davis
      埃里克·貝瑞曼 Eric Berryman
      埃茲拉·巴恩斯 Ezra Barnes
      尼爾森·艾維登 Nelson Avidon


◎標  簽 美國 | 犯罪 | 劇情 | 懸疑 | 2019 | 驚悚 | 黑色幽默 | 人性

◎簡  介

  故事圍繞1950年代紐約私人偵探萊昂內爾·“布魯克林”·埃斯羅格展開,面對唯一導師兼摯友弗蘭克·明納離奇遇害,身患抽動穢語綜合征的孤兒萊昂內爾不得不上下求索,獨自深入哈林爵士天地和布魯克林窮街陋巷,竭力探尋這起謀殺背后的秘密和真相。
  影片由愛德華·諾頓執導、編劇、制片并主演,于1950年代紐約大轉型背景下重新演繹喬納森·利瑟姆同名小說《布魯克林孤兒》中各色當代人物。

◎獲獎情況

  第77屆金球獎(2020)
  電影類 最佳原創配樂(提名) 丹尼爾·彭博頓

  第18屆美國視覺效果協會獎(2020)
  最佳真人電影CG背景(提名)

  第24屆金衛星獎(2020)
  電影部門 最佳改編劇本(提名) 愛德華·諾頓
  電影部門 最佳攝影(提名)
  電影部門 最佳美術指導

  第40屆倫敦影評人協會獎(2020)
  技術成就獎(提名) 丹尼爾·彭博頓
Video
ID : 1
Format : AVC
Format/Info : Advanced Video Codec
Format profile : [email protected]
Format settings : CABAC / 2 Ref Frames
Format settings, CABAC : Yes
Format settings, Reference frames : 2 frames
Codec ID : V_MPEG4/ISO/AVC
Duration : 2 h 25 min
Bit rate : 5 245 kb/s
Width : 1 920 pixels
Height : 1 080 pixels
Display aspect ratio : 16:9
Frame rate mode : Constant
Frame rate : 23.976 (24000/1001) FPS
Color space : YUV
Chroma subsampling : 4:2:0
Bit depth : 8 bits
Scan type : Progressive
Bits/(Pixel*Frame) : 0.106
Stream size : 5.32 GiB (93%)
Writing library : x264 core 155 r2901 7d0ff22
Default : Yes
Forced : No
Color range : Limited
Color primaries : BT.709
Transfer characteristics : BT.709
Matrix coefficients : BT.709

Audio
ID : 2
Format : AC-3
Format/Info : Audio Coding 3
Commercial name : Dolby Digital
Codec ID : A_AC3
Duration : 2 h 25 min
Bit rate mode : Constant
Bit rate : 384 kb/s
Channel(s) : 6 channels
Channel layout : L R C LFE Ls Rs
Sampling rate : 48.0 kHz
Frame rate : 31.250 FPS (1536 SPF)
Bit depth : 16 bits
Compression mode : Lossy
Stream size : 399 MiB (7%)
Title : English
Language : English
Service kind : Complete Main
Default : Yes
Forced : No

Text
ID : 3
Format : UTF-8
Codec ID : S_TEXT/UTF8
Codec ID/Info : UTF-8 Plain Text
Duration : 2 h 15 min
Bit rate : 81 b/s
Count of elements : 2566
Stream size : 80.8 KiB (0%)
Language : English
Default : Yes
Forced : No





1 個附件 售價 大小 下載 時間

Motherless.Brooklyn.2019.1080p.WEBRip.DD5.1.x264-CM.torrent 0 金幣 29.08K 2366 次 4月前

#1樓
發帖時間:2020-01-14 15:09:11   |   回復數:2
show55667878
武林高手
感謝分享這新電影
4月前 #2樓
911degrees
隱世仙人♂
非常感謝,謝謝分享
4月前 #3樓
游客組